Boys II Men - Twenty (inc. Greatest Hits) 2011 [FLAC] - Kitlope

seeders:
leechers:
updated:
Added by Kitlope in TV
Torrent verified.

Description

PC Software: Windows 7 Ultimate Build 7600 
File Type: FLAC Compression 6
Optical Drive Hardware: Samsung SH-S223L
Optical Drive Firmware: SB04
Cd Software: Exact Audio Copy V1.0 Beta 3 (Secure Mode)
EAC Log: Yes
EAC Cue Sheet: Yes
M3U Playlist: Yes
Tracker(s):http://tracker.openbittorrent.com/announce; 
Torrent Hash: EC54D49CAD2A7C2E4A5652A98D50735DA22702C9
File Size: 625.73 MB
Year: 2011
Label: MSM / Benchmark / Warner Bros.
Catalog #: 0252781669

Please help seed these FLACs! 

From Wiki:

Boyz II Men is an American R&B vocal group best known for emotional ballads and a cappella harmonies. They are the most successful R&B group of all time, having sold more than 60 million albums worldwide.[1] Currently the group is a trio, featuring baritone Nathan Morris alongside tenors Wanya Morris and Shawn Stockman. In the 1990s, Boyz II Men found fame on Motown Records as a quartet, but the original member and bass singer Michael McCary left the group in 2003 due to health issues. The quartet won four Grammy Awards, and the trio was nominated for two Grammys in 2009.


Twenty is the tenth studio album by American R&B group Boyz II Men. The album was released in the United States on October 25, 2011. The first single was "More Than You'll Ever Know" featuring Charlie Wilson. As of September 2011, the single was the most added song to radio sets on urban adult contemporary radio stations.[7] The album featured 13 new material songs and nine rerecorded Boyz II Men classics. It was produced Tim & Bob, Babyface, Jimmy Jam and Terry Lewis, and Teddy Riley.[8] The album debuted at number 20 on the Billboard 200, selling 18,400 copies in its first week.

Tracks: 


Disc 1 


1.	"Believe" 
2.	"So Amazing" 
3.	"Put Some Music On" 
4.	"Slowly" 
5.	"More Than You'll Ever Know" (featuring Charlie Wilson)
6.	"I Shoulda Lied" 
7.	"Benefit of a Fool" 
8.	"Refuse to Be the Reason" 
9.	"One More Dance" 
10.	"Will You Be There" 
11.	"Flow" 
12.	"One Up For Love"


Disc 2 


1.	"Motownphilly" 
2.	"On Bended Knee" 
3.	"Four Seasons of Loneliness" 
4.	"Water Runs Dry" 
5.	"A Song For Mama" 
6.	"It's So Hard to Say Goodbye to Yesterday" 
7.	"I'll Make Love to You" 
8.	"End of the Road" 
9.	"Not Like You"


Enjoy :)

Sharing Widget


Download torrent
seeders:
leechers:
Boys II Men - Twenty (inc. Greatest Hits) 2011 [FLAC] - Kitlope



To share this torrent use the code below and insert it into comments, status messages, forum posts or your signature.

Torrent: Boys II Men - Twenty (inc. Greatest Hits) 2011 [FLAC] - Kitlope

Trackers

tracker name
udp://tracker.coppersurfer.tk:6969/announce
udp://9.rarbg.me:2710/announce
udp://p4p.arenabg.ch:1337/announce
udp://tracker.leechers-paradise.org:6969/announce
udp://eddie4.nl:6969/announce
udp://thetracker.org:80/announce
udp://tracker.coppersurfer.tk:6969
udp://explodie.org:6969/announce
udp://tracker.aletorrenty.pl:2710/announce
udp://9.rarbg.to:2710/announce
udp://torrent.gresille.org:80/announce
udp://tracker.opentrackr.org:1337/announce
udp://tracker.piratepublic.com:1337/announce
udp://tracker.sktorrent.net:6969/announce
udp://zer0day.ch:1337/announce
??Torrent compatible trackers list

Locations

name
KickassTorrents
Torrent hash: EC54D49CAD2A7C2E4A5652A98D50735DA22702C9

All Comments

audio
0/10
video
0/10
please, leave only comments related to that torrent
Sign In

MRMKHS1
Maraming Salamat Po.
kabayanhustl
Boys II Men - Twenty (inc. Greatest Hits) --- Disc 2

[CUETools log; Date: 8/3/2013 8:49:06 AM; Version: 2.1.4]
[CTDB TOCID: qZ_Rp5dpzzvqeUhSwLKcNGs9PA4-] found.
Track | CTDB Status
1 | (11/11) Accurately ripped
2 | (11/11) Accurately ripped
3 | (11/11) Accurately ripped
4 | (11/11) Accurately ripped
5 | (11/11) Accurately ripped
6 | (11/11) Accurately ripped
7 | (11/11) Accurately ripped
8 | (11/11) Accurately ripped
9 | (11/11) Accurately ripped
[AccurateRip ID: 000d8fc6-006335e5-6a094b09] found.
Track [ CRC | V2 ] Status
01 [48278ace|8b3db1a8] (02+09/11) Accurately ripped
02 [bd104dfd|a2fca53b] (02+09/11) Accurately ripped
03 [08e3b3b4|9acf940c] (02+09/11) Accurately ripped
04 [52dda083|2a5fc268] (02+09/11) Accurately ripped
05 [3442e54f|e6d7bd87] (02+09/11) Accurately ripped
06 [666462f3|a56405e1] (02+09/11) Accurately ripped
07 [5679deba|f0a0542d] (02+09/11) Accurately ripped
08 [94a73c55|d5cfe3f6] (02+09/11) Accurately ripped
09 [d5ee1570|cd302524] (02+09/11) Accurately ripped

Track Peak [ CRC32 ] [W/O NULL] [ LOG ]
-- 92.2 [E5B98FE2] [E4043734]
01 87.0 [400F4C05] [CAA3586E] CRC32
02 92.2 [D5C473A3] [A5EB742C] CRC32
03 92.2 [B316237F] [9C030C61] CRC32
04 92.2 [B773C52D] [01F1D6EE] CRC32
05 89.0 [01C762BF] [F448541B] CRC32
06 92.2 [024A7E5C] [32564870] CRC32
07 92.2 [3045A29C] [91D00825] CRC32
08 92.2 [17773E94] [7271CC79] CRC32
09 88.3 [4ADDF333] [CB28596B] CRC32
kabayanhustl
THANKS :D
nox1n
what ^^
JustAnotherApprentice
Thanks a bunch,Kitlope!
captrael
man thanks so much for sharing!! you're the best kitlope :)
scotty62
thank you!
vampzcore
thanks!!
Report a bug Open chat
x
 Your IP: Location: ~ Hide your IP with a VPN when torrenting!   HIDE ME NOW!