David Lynch - Lost Highway (1997)

seeders:
leechers:
updated:
Added by mfccorrea in TV
Torrent verified.

Description

Five years after the critical and commercial disappointment of Twin Peaks: Fire Walk With Me, director David Lynch returned to the big screen with this cryptic thriller about confused identities and erotic obsession. Fred (Bill Pullman) is an avant-garde jazz saxophonist who shares a luxurious but fashionably barren house with his wife Renee (Patricia Arquette). Fred suspects that Renee may be unfaithful to him, but realizes he has bigger things to worry about when a series of videotapes appear at his door that prove someone is watching his home from the outside and inside. When Renee is found murdered, Fred finds himself behind bars, but one morning Fred is no longer in his cell. He has seemingly been transformed into Pete Drayton (Balthazar Getty), a young auto mechanic who foolishly allowed himself to get involved with the wife of gangster Dick Laurent (Robert Loggia), a luscious blonde named Alice who looks exactly like Renee.

   General
      Complete name : Lost Highway (1997).avi
      Format : AVI
      Format/Info : Audio Video Interleave
      Format profile : OpenDML
      File size : 1.99 GiB
      Duration : 2h 14mn
      Overall bit rate : 2 127 Kbps
      Movie name : S
      Director : K
      Writing application : VirtualDubMod 1.5.10.2 (build 2542/release)
      Writing library : VirtualDubMod build 2542/release
      Copyright : h
   Video #0
      ID : 0
      Format : MPEG-4 Visual
      Format profile : [email protected]
      Format settings, BVOP : Yes
      Format settings, QPel : No
      Format settings, GMC : No warppoints
      Format settings, Matrix : Default (MPEG)
      Codec ID : XVID
      Codec ID/Hint : XviD
      Duration : 2h 14mn
      Bit rate : 1 666 Kbps
      Width : 720 pixels
      Height : 304 pixels
      Display aspect ratio : 2.35:1
      Frame rate : 24.000 fps
      Resolution : 24 bits
      Colorimetry : 4:2:0
      Scan type : Progressive
      Bits/(Pixel*Frame) : 0.317
      Stream size : 1.56 GiB (78%)
      Writing library : XviD 1.2.1 (UTC 2008-12-04)
   Audio #1
      ID : 1
      Format : AC-3
      Format/Info : Audio Coding 3
      Codec ID : 2000
      Duration : 2h 14mn
      Bit rate mode : Constant
      Bit rate : 448 Kbps
      Channel(s) : 6 channels
      Channel positions : Front: L C R, Surround: L R, LFE
      Sampling rate : 48.0 KHz
      Stream size : 430 MiB (21%)
      Alignment : Split accross interleaves
      Interleave, duration : 42 ms (1.00 video frame)
      Interleave, preload duration : 500 ms
 
http://www.imdb.com/title/tt0116922/

English audio: English and Portuguese subtitles

Posted at KG by robertrath, whom we thank

David Lynch - Lost Highway (1997)

Sharing Widget


Download torrent
seeders:
leechers:
David Lynch - Lost Highway (1997)



To share this torrent use the code below and insert it into comments, status messages, forum posts or your signature.

Torrent: David Lynch - Lost Highway (1997)

Trackers

tracker name
udp://tracker.coppersurfer.tk:6969/announce
udp://9.rarbg.me:2710/announce
udp://p4p.arenabg.ch:1337/announce
udp://tracker.leechers-paradise.org:6969/announce
udp://eddie4.nl:6969/announce
udp://thetracker.org:80/announce
udp://tracker.coppersurfer.tk:6969
udp://explodie.org:6969/announce
udp://tracker.aletorrenty.pl:2710/announce
udp://9.rarbg.to:2710/announce
udp://torrent.gresille.org:80/announce
udp://tracker.opentrackr.org:1337/announce
udp://tracker.piratepublic.com:1337/announce
udp://tracker.sktorrent.net:6969/announce
udp://zer0day.ch:1337/announce
??Torrent compatible trackers list

Locations

name
KickassTorrents
Torrent hash: 0209990BA079828588EA4DE186A0F1AE9789245B

All Comments

audio
0/10
video
0/10
please, leave only comments related to that torrent
Sign In

Meneos
Excelente calidad, torrent recomendado.
----------------------------------------------
Excellent quality, torrent recommended.
Tungsteno
absolutly recomendable torrent and movie!

PS: if you are looking for the spanish subs, i've already found them! (very well syncronized with this version)

http://www.subdivx.com/X6XMzQzODY2X-lost-highway-1997.html
Report a bug Open chat
x
 Your IP: Location: ~ Hide your IP with a VPN when torrenting!   HIDE ME NOW!